<?xml version="1.0" standalone="no"?>
<!DOCTYPE svg PUBLIC "-//W3C//DTD SVG 1.1//EN" "http://www.w3.org/Graphics/SVG/1.1/DTD/svg11.dtd" >
<svg xmlns="http://www.w3.org/2000/svg">
<metadata>Generated by IcoMoon</metadata>
<defs>
<font id="gmi" horiz-adv-x="1024">
<font-face units-per-em="1024" ascent="960" descent="-64" />
<missing-glyph horiz-adv-x="1024" />
<glyph unicode="&#x20;" horiz-adv-x="512" d="" />
<glyph unicode="&#xe900;" glyph-name="document-thin" d="M938.667-64h-853.333v1024h597.333l256-256v-768zM640 917.333h-512v-938.667h768v682.667h-256v256zM768 277.333v-42.667h-512v42.667h512zM768 405.333v-42.667h-512v42.667h512zM768 533.333v-42.667h-512v42.667h512zM682.667 704h195.669l-195.669 195.669v-195.669z" />
<glyph unicode="&#xe901;" glyph-name="computer-thin" d="M213.333 21.333h170.667v128h-384v768h1024v-768h-426.667v-128h170.667v-42.667h-554.667v42.667zM426.667 149.333v-128h128v128h-128zM981.333 874.667h-938.667v-682.667h938.667v682.667z" />
<glyph unicode="&#xe902;" glyph-name="wrench" d="M864.939-64c-42.368 0-82.219 16.512-112.171 46.464l-377.941 377.941c-16.939 16.939-41.088 26.027-64.939 24.021-84.011-6.485-166.571 23.893-226.261 83.627-64.811 64.853-83.627 140.032-83.627 205.056 0 70.357 22.059 128.768 31.701 149.163l187.264-187.264c23.808 1.877 56.704 23.040 79.787 51.627 15.147 18.773 24.533 38.784 25.813 54.059l-187.307 187.307c42.325 18.005 100.011 32 151.040 32 76.843 0 149.077-29.824 203.307-84.011 59.605-59.691 90.069-142.165 83.541-226.304-1.835-24.107 6.912-47.787 24.021-64.896l377.984-377.984c31.232-31.275 46.848-71.723 46.848-112.213 0-39.851-15.147-79.744-45.653-110.891-30.080-30.763-70.357-47.701-113.408-47.701zM316.288 469.931c44.203 0 87.509-17.963 118.827-49.237l377.941-377.941c27.989-27.989 76.757-27.691 104.405 0.555 13.909 14.208 21.333 33.024 20.907 52.949-0.427 18.944-8.064 36.864-21.504 50.304l-377.941 377.941c-34.731 34.645-52.48 82.688-48.768 131.712 4.608 59.349-16.853 117.419-58.837 159.445-32.384 32.384-73.941 52.437-118.869 57.728l92.288-92.288c9.856-45.44 5.845-91.605-39.637-147.968-47.147-58.453-110.507-94.805-186.581-78.208l-92.245 92.245c5.333-44.331 25.131-86.315 57.685-118.869 42.027-42.069 100.139-63.616 159.403-58.88l12.928 0.512zM902.784 96c0-21.632-17.493-39.125-39.125-39.125-21.589 0-39.125 17.536-39.125 39.125s17.493 39.125 39.125 39.125c21.632-0.043 39.125-17.536 39.125-39.125z" />
<glyph unicode="&#xe903;" glyph-name="video" d="M512 874.667c235.264 0 426.667-191.403 426.667-426.667s-191.403-426.667-426.667-426.667-426.667 191.403-426.667 426.667 191.403 426.667 426.667 426.667zM512 960c-282.752 0-512-229.248-512-512s229.248-512 512-512 512 229.248 512 512-229.248 512-512 512zM384 234.667v426.667l384-219.563-384-207.104z" />
<glyph unicode="&#xe904;" glyph-name="globe" d="M512 960c-282.752 0-512-229.248-512-512s229.248-512 512-512 512 229.248 512 512-229.248 512-512 512zM938.667 448c0-29.227-2.987-57.771-8.619-85.333h-164.395c5.163 54.741 5.504 111.829 0 170.667h164.395c5.632-27.563 8.619-56.107 8.619-85.333zM902.784 618.667h-149.333c-16.341 83.627-44.885 160.043-83.115 225.195 103.893-41.685 187.605-122.965 232.448-225.195zM665.813 618.667h-111.147v241.408c51.84-62.293 90.325-145.493 111.147-241.408zM469.333 860.075v-241.408h-111.147c20.821 95.915 59.307 179.115 111.147 241.408zM469.333 533.333v-170.667h-125.013c-6.229 60.629-6.229 109.952 0 170.667h125.013zM469.333 277.333v-241.408c-51.84 62.293-90.325 145.493-111.147 241.408h111.147zM554.667 35.925v241.408h111.147c-20.821-95.915-59.307-179.115-111.147-241.408zM554.667 362.667v170.667h125.013c6.229-60.629 6.229-109.952 0-170.667h-125.013zM353.664 843.861c-38.229-65.152-66.773-141.568-83.115-225.195h-149.333c44.843 102.229 128.555 183.509 232.448 225.195zM93.952 533.333h164.395c-5.163-54.741-5.504-111.829 0-170.667h-164.395c-5.632 27.563-8.619 56.107-8.619 85.333s2.987 57.771 8.619 85.333zM121.216 277.333h149.333c16.341-83.627 44.885-160.043 83.115-225.195-103.893 41.685-187.605 122.965-232.448 225.195zM670.336 52.139c38.229 65.152 66.773 141.568 83.115 225.195h149.333c-44.843-102.229-128.555-183.509-232.448-225.195z" />
<glyph unicode="&#xe905;" glyph-name="angel-up-thin" d="M991.787 106.667l-479.787 613.291-478.677-613.291-33.323 26.411 512 656.256 512-656.683-32.213-25.984z" />
<glyph unicode="&#xe906;" glyph-name="angel-down-thin" d="M991.787 789.333l-479.787-613.291-478.677 613.291-33.323-26.411 512-656.256 512 656.683-32.213 25.984z" />
<glyph unicode="&#xe907;" glyph-name="angel-left-thin" d="M853.333 927.787l-613.291-479.787 613.291-478.677-26.411-33.323-656.256 512 656.683 512 25.984-32.213z" />
<glyph unicode="&#xe908;" glyph-name="angel-right-thin" d="M170.667 927.787l613.291-479.787-613.291-478.677 26.411-33.323 656.256 512-656.683 512-25.984-32.213z" />
<glyph unicode="&#xe909;" glyph-name="circle-dots" d="M511.915 874.667c235.392 0 426.539-191.147 426.539-426.581 0-235.392-191.147-426.539-426.539-426.539-235.435 0-426.581 191.147-426.581 426.539 0 235.435 191.147 426.581 426.581 426.581zM511.915 810.667c-200.107 0-362.581-162.475-362.581-362.581s162.475-362.539 362.581-362.539 362.539 162.432 362.539 362.539-162.432 362.581-362.539 362.581zM618.667 448.213c0 29.44 23.893 53.333 53.333 53.333s53.333-23.893 53.333-53.333-23.893-53.333-53.333-53.333-53.333 23.893-53.333 53.333zM458.667 448.213c0 29.44 23.893 53.333 53.333 53.333s53.333-23.893 53.333-53.333-23.893-53.333-53.333-53.333-53.333 23.893-53.333 53.333zM298.667 448.213c0 29.44 23.893 53.333 53.333 53.333s53.333-23.893 53.333-53.333-23.893-53.333-53.333-53.333-53.333 23.893-53.333 53.333z" />
<glyph unicode="&#xe90a;" glyph-name="tablet-phone" d="M578.688-64c-16.256 13.867-24.021 41.643-24.021 64v106.667h-469.333v725.333h597.333v-128h85.333v170.667c0 47.104-38.229 85.333-85.333 85.333h-597.333c-47.104 0-85.333-38.229-85.333-85.333v-853.333c0-47.104 38.229-85.333 85.333-85.333h493.355zM960 661.333c35.328 0 64-28.672 64-64v-597.333c0-35.243-28.629-64-64-64h-298.667c-35.371 0-64 28.8-64 64v597.333c0 35.285 28.715 64 64 64h298.667zM384 64c23.552 0 42.667-19.115 42.667-42.667s-19.115-42.667-42.667-42.667-42.667 19.115-42.667 42.667 19.115 42.667 42.667 42.667zM810.667-21.333c23.552 0 42.624 19.115 42.624 42.667s-19.072 42.667-42.624 42.667c-23.595 0-42.667-19.115-42.667-42.667s19.072-42.667 42.667-42.667zM981.333 106.667v427.691h-341.333v-427.691h341.333zM832 576c11.733 0 21.333 9.557 21.333 21.333s-9.6 21.333-21.333 21.333h-42.667c-11.776 0-21.333-9.557-21.333-21.333s9.557-21.333 21.333-21.333h42.667z" />
<glyph unicode="&#xe90b;" glyph-name="chart" d="M1024 794.667l-256-52.096 73.216-72.875-228.309-228.608-128.043 128.085-313.003-308.992 60.16-60.501 252.672 248.917 127.616-127.701 289.323 288.512 71.125-70.827 51.243 256.085zM1024 64v-85.333h-1024v938.667h85.333v-853.333h938.667z" />
<glyph unicode="&#xe90c;" glyph-name="calendar-check" d="M1024 874.667v-938.667h-1024v938.667h128v-42.667c0-47.061 38.272-85.333 85.333-85.333s85.333 38.272 85.333 85.333v42.667h426.667v-42.667c0-47.061 38.272-85.333 85.333-85.333s85.333 38.272 85.333 85.333v42.667h128zM938.667 618.667h-853.333v-597.333h853.333v597.333zM853.333 917.333c0 23.552-19.072 42.667-42.667 42.667s-42.667-19.115-42.667-42.667v-85.333c0-23.552 19.072-42.667 42.667-42.667s42.667 19.115 42.667 42.667v85.333zM256 832c0-23.552-19.072-42.667-42.667-42.667s-42.667 19.115-42.667 42.667v85.333c0 23.552 19.072 42.667 42.667 42.667s42.667-19.115 42.667-42.667v-85.333zM298.667 331.563l36.48 33.749c42.667-20.651 69.76-36.352 117.76-70.571 90.155 102.357 149.803 154.283 260.523 223.189l11.904-27.307c-91.349-79.744-158.251-168.491-254.592-341.291-59.435 69.973-99.072 114.603-172.075 182.229z" />
<glyph unicode="&#xe90d;" glyph-name="user2" d="M431.744 274.603c97.835 22.613 188.885 42.411 144.811 125.696-134.272 253.483-35.627 389.035 106.155 389.035 144.555 0 240.768-140.757 106.155-389.077-45.44-83.797 49.024-103.552 144.768-125.696 84.693-19.541 90.368-60.928 90.368-132.565l-0.128-35.328h-56.704c0 89.131 3.541 100.992-52.309 113.877-81.109 18.688-157.653 36.352-185.643 98.304-10.197 22.613-16.853 59.819 9.643 108.501 58.539 108.032 73.344 201.643 40.491 256.725-38.485 64.725-154.325 64.384-192.512 0.939-32.768-54.315-18.176-148.437 39.936-258.133 25.899-48.896 19.072-86.016 8.789-108.501-28.16-61.653-105.472-79.488-187.307-98.347-53.419-12.373-50.005-25.088-50.005-113.365h-56.789c0 93.696-7.509 145.323 90.283 167.936zM0.085 106.667h56.704c0 81.835-7.936 59.093 77.824 84.181 43.264 12.587 81.493 30.848 98.816 68.779 9.045 19.755 15.147 52.053-6.912 93.739-40.619 76.715-52.011 143.957-30.379 179.84 23.339 38.784 96.853 38.741 120.277-0.64 39.893-66.859-33.835-169.899-43.52-212.565h59.563c18.773 42.667 51.456 94.208 51.456 166.4 0 85.76-55.979 132.267-127.915 132.267-106.368 0-180.352-101.675-79.616-291.797 33.024-62.464-35.243-77.312-108.587-94.251-63.573-14.72-67.797-45.739-67.797-99.584l0.085-26.368z" />
<glyph unicode="&#xe90e;" glyph-name="access-door" d="M556.075 874.667v85.333l426.667-128v-768l-426.667-128v85.333h-384v298.667h42.667v-256h341.333v768h-341.333v-298.667h-42.667v341.333h384zM598.741-6.656l341.333 102.4v704.512l-341.333 102.4v-909.312zM430.336 448l-140.501 140.501 30.165 30.165 192-192-192-192-30.165 30.165 140.501 140.501h-386.261v42.667h386.261z" />
<glyph unicode="&#xe90f;" glyph-name="arrow-left-lined" d="M404.224 737.749s-192.043-192.213-266.837-267.051c-6.272-6.229-9.387-14.421-9.387-22.613s3.115-16.384 9.387-22.613c74.752-74.837 266.752-266.965 266.752-266.965 6.187-6.187 14.336-9.259 22.485-9.259 8.149 0.043 16.341 3.157 22.613 9.429 12.501 12.501 12.544 32.683 0.171 45.099l-212.309 212.309h626.859c17.664 0 32 14.336 32 32s-14.336 32-32 32h-626.859l212.395 212.437c12.331 12.331 12.245 32.469-0.256 44.971-6.272 6.272-14.464 9.429-22.613 9.429-8.149 0.043-16.213-3.029-22.4-9.173z" />
<glyph unicode="&#xe910;" glyph-name="arrow-right-lined" d="M619.648 158.421s192.043 192.213 266.88 267.093c6.229 6.229 9.344 14.421 9.344 22.613s-3.115 16.341-9.344 22.613c-74.795 74.837-266.88 267.008-266.88 267.008-6.144 6.187-14.251 9.259-22.357 9.259-8.235 0-16.427-3.157-22.699-9.429-12.501-12.459-12.587-32.683-0.171-45.056l212.395-212.395h-626.859c-17.664 0-32-14.336-32-32s14.336-32 32-32h626.859l-212.437-212.437c-12.331-12.331-12.203-32.512 0.256-44.971 6.315-6.315 14.549-9.472 22.741-9.472 8.107 0 16.128 3.072 22.272 9.173z" />
<glyph unicode="&#xe911;" d="M887.061 298.179c-8.417-201.021-173.98-361.424-377.069-361.424-208.474 0-377.475 174.682-377.475 377.475 0 27.106-0.486 81.277 40.157 172.675 24.323 54.698 39.579 89.060 48.188 120.471 4.73 17.263 13.93 44.691 40.157 0 15.464-26.351 16.063-64.251 16.063-64.251s57.537 44.152 96.376 128.502c56.938 123.655 11.509 197.572-4.016 248.973-5.373 17.781-8.746 49.738 28.11 36.141 37.555-13.858 136.839-83.358 188.737-156.612 74.069-104.548 100.392-204.8 100.392-204.8s23.717 29.435 32.125 60.235c9.497 34.78 9.638 69.226 40.153 32.121 29.021-35.286 72.122-101.597 96.38-164.639 44.048-114.483 31.72-224.866 31.72-224.866z" />
<glyph unicode="&#xe912;" d="M509.992-63.245c-144.159 0-261.020 116.86-261.020 261.020 0 86.984 35.053 139.794 108.006 211.41 46.71 45.855 90.429 102.175 109.010 140.525 3.658 7.549 11.983 46.891 44.080 0.827 16.838-24.158 43.233-67.122 60.159-103.789 29.178-63.219 36.141-124.486 36.141-124.486s28.596 16.85 48.188 60.235c6.317 13.983 19.087 66.917 54.786 13.991 26.194-38.84 62.179-108.673 61.669-198.712 0-144.159-116.865-261.020-261.020-261.020z" />
<glyph unicode="&#xe913;" d="M514.008 221.869c37.145 0 37.145-68.785 84.329-160.627 31.419-61.155-15.577-124.486-84.329-124.486s-104.408 55.734-104.408 124.486c0 68.749 67.263 160.627 104.408 160.627z" />
<glyph unicode="&#xe914;" glyph-name="credit-card" d="M938.667 832c22.613 0 44.331-9.003 60.331-25.003s25.003-37.717 25.003-60.331v-597.333c0-22.613-9.003-44.331-25.003-60.331s-37.717-25.003-60.331-25.003h-853.333c-22.613 0-44.331 9.003-60.331 25.003s-25.003 37.717-25.003 60.331v597.333c0 22.613 9.003 44.331 25.003 60.331s37.717 25.003 60.331 25.003h853.333zM981.333 490.667h-938.667v-341.333c0-23.552 19.115-42.667 42.667-42.667h853.333c23.552 0 42.667 19.115 42.667 42.667v341.333zM341.333 277.333v-42.667h-213.333v42.667h213.333zM896 362.667v-42.667h-128v42.667h128zM469.333 362.667v-42.667h-341.333v42.667h341.333zM42.667 618.667v-85.333h938.667v85.333h-938.667zM981.333 661.333v85.333c0 23.552-19.115 42.667-42.667 42.667h-853.333c-23.552 0-42.667-19.115-42.667-42.667v-85.333h938.667z" />
<glyph unicode="&#xe915;" glyph-name="users" d="M431.744 274.603c97.835 22.613 188.885 42.411 144.811 125.696-134.272 253.483-35.627 389.035 106.155 389.035 144.555 0 240.768-140.757 106.155-389.077-45.44-83.797 49.024-103.552 144.768-125.696 84.693-19.541 90.368-60.928 90.368-132.565l-0.128-35.328h-56.704c0 89.131 3.541 100.992-52.309 113.877-81.109 18.688-157.653 36.352-185.643 98.304-10.197 22.613-16.853 59.819 9.643 108.501 58.539 108.032 73.344 201.643 40.491 256.725-38.485 64.725-154.325 64.384-192.512 0.939-32.768-54.315-18.176-148.437 39.936-258.133 25.899-48.896 19.072-86.016 8.789-108.501-28.16-61.653-105.472-79.488-187.307-98.347-53.419-12.373-50.005-25.088-50.005-113.365h-56.789c0 93.696-7.509 145.323 90.283 167.936zM0.085 106.667h56.704c0 81.835-7.936 59.093 77.824 84.181 43.264 12.587 81.493 30.848 98.816 68.779 9.045 19.755 15.147 52.053-6.912 93.739-40.619 76.715-52.011 143.957-30.379 179.84 23.339 38.784 96.853 38.741 120.277-0.64 39.893-66.859-33.835-169.899-43.52-212.565h59.563c18.773 42.667 51.456 94.208 51.456 166.4 0 85.76-55.979 132.267-127.915 132.267-106.368 0-180.352-101.675-79.616-291.797 33.024-62.464-35.243-77.312-108.587-94.251-63.573-14.72-67.797-45.739-67.797-99.584l0.085-26.368z" />
<glyph unicode="&#xe916;" glyph-name="clock" d="M512 960c-282.581 0-512-229.419-512-512s229.419-512 512-512c282.581 0 512 229.419 512 512s-229.419 512-512 512zM512 917.333c259.029 0 469.333-210.304 469.333-469.333s-210.304-469.333-469.333-469.333-469.333 210.304-469.333 469.333 210.304 469.333 469.333 469.333zM512 448h256v-42.667h-298.667v384h42.667v-341.333z" />
</font>
</defs>
</svg>
